2010 14 Blades 2010 BRRip ENG DUB x264 AC3-MiLLENiUM
6.510 vistas

  • Information
  • Trailer
14 Blades 2010 BRRip ENG DUB x264 AC3-MiLLENiUM (2010)

Rating IMDb 6.4/10 - 4,617 votos

Original title 14 Blades

Duration 114 min

Year

Release 04 Feb 2010

Origin Hong Kong, China, Singapore

Languages Mandarin

Director

Script , , , , ,

Awards 2 wins & 3 nominations.

genre Action,BDRip,drama

R Sinopsis de 14 Blades 2010 BRRip ENG DUB x264 AC3-MiLLENiUM (2010)

A kung fu thriller set during the Ming Dynasty and centered on a secret service agent (Donnie Yen) in the emperor’s court who is betrayed and then hunted by his colleagues.

14 Blades 2010 BRRip ENG DUB x264 AC3-MiLLENiUM                  

General

Source……………: DL.1080p.BluRay.x264-ENCOUNTERS [THANKS]
IMDb Information…. : http://www.imdb.com/title/tt1442571/
Sample Included……: yes

General
Complete name                            : 14 Blades 2010 BRRip ENG DUB x264 AC3-MiLLENiUM.mkv
Format                                   : Matroska
Format version                           : Version 2
File size                                : 1.71 GiB
Duration                                 : 1h 48mn
Overall bit rate mode                    : Variable
Overall bit rate                         : 2 268 Kbps
Encoded date                             : UTC 2014-07-06 22:15:17
Writing application                      : mkvmerge v7.0.0 (‘Where We Going’) 32bit built on Jun  9 2014 15:08:34
Writing library                          : libebml v1.3.0 + libmatroska v1.4.1

Video
ID                                       : 1
Format                                   : AVC
Format/Info                              : Advanced Video Codec
Format profile                           : [email protected]
Format settings, CABAC                   : Yes
Format settings, ReFrames                : 3 frames
Codec ID                                 : V_MPEG4/ISO/AVC
Duration                                 : 1h 48mn
Bit rate mode                            : Variable
Bit rate                                 : 1 775 Kbps
Maximum bit rate                         : 40.0 Mbps
Width                                    : 720 pixels
Height                                   : 304 pixels
Display aspect ratio                     : 2.35:1
Frame rate mode                          : Constant
Frame rate                               : 24.000 fps
Color space                              : YUV
Chroma subsampling                       : 4:2:0
Bit depth                                : 8 bits
Scan type                                : Progressive
Bits/(Pixel*Frame)                       : 0.338
Stream size                              : 1.34 GiB (78%)
Writing library                          : x264 core 142 r2431 ac76440

Audio
ID                                       : 2
Format                                   : AC-3
Format/Info                              : Audio Coding 3
Mode extension                           : CM (complete main)
Format settings, Endianness              : Big
Codec ID                                 : A_AC3
Duration                                 : 1h 48mn
Bit rate mode                            : Constant
Bit rate                                 : 448 Kbps
Channel(s)                               : 6 channels
Channel positions                        : Front: L C R, Side: L R, LFE
Sampling rate                            : 48.0 KHz
Bit depth                                : 16 bits
Compression mode                         : Lossy
Stream size                              : 347 MiB (20%)
Language                                 : English
Default                                  : Yes
Forced                                   : No

Plot

A kung fu thriller set during the Ming Dynasty and centered on a secret service agent (Donnie Yen) in the emperor’s court who is betrayed and then hunted by his colleagues.

Screenshots

Click To Resize

 

Click To Resize

 

Click To Resize

 

Click To Resize

 

Click To Resize

 

Click To Resize

Click To Resize


Deja un comentario

Configure TagCopy to clipboard estadisticas